logo

Super Rakshak (2018) 720p Hindi Dubbed HDRip x264 AAC by Full4mov...

  • Category Movies
  • Type h.264/x264
  • Language Hindi
  • Total size 1.1 GB
  • Uploaded By shmasti
  • Downloads 281
  • Last checked 3 days ago
  • Date uploaded 1 week ago
  • Seeders 8
  • Leechers 5

Infohash : 81D717FE7F7A0BC2BB31957A47643B186A7BA00F

Download Super Rakshak (2018) 720p Hindi Dubbed HDRip x264 AAC by Full4movies Torrent

General
Complete name : Super Rakshak (2018) 720p Hindi Dubbed HDRip x264 AAC by Full4movies.mkv
Format : Matroska
Format version : Version 4 / Version 2
File size : 1.12 GiB
Duration : 2 h 3 min
Overall bit rate : 1 293 kb/s
Encoded date : UTC 2018-06-14 14:06:03
Writing application : mkvmerge v8.1.0 ('Psychedelic Postcard') 32bit
Writing library : libebml v1.3.1 + libmatroska v1.4.2

Video
ID : 1
Format : AVC
Format/Info : Advanced Video Codec
Format profile : [email protected]
Format settings, CABAC : Yes
Format settings, RefFrames : 5 frames
Codec ID : V_MPEG4/ISO/AVC
Duration : 2 h 3 min
Bit rate : 1 152 kb/s
Width : 1 280 pixels
Height : 548 pixels
Display aspect ratio : 2.35:1
Frame rate mode : Constant
Frame rate : 30.000 FPS
Color space : YUV
Chroma subsampling : 4:2:0
Bit depth : 8 bits
Scan type : Progressive
Bits/(Pixel*Frame) : 0.055
Stream size : 1.01 GiB (90%)
Writing library : x264 core 148 r2643 5c65704
Language : Kannada
Default : Yes
Forced : No

Audio
ID : 2
Format : AAC
Format/Info : Advanced Audio Codec
Format profile : LC
Codec ID : A_AAC
Duration : 2 h 3 min
Bit rate : 126 kb/s
Channel(s) : 2 channels
Channel positions : Front: L R
Sampling rate : 44.1 kHz
Frame rate : 43.066 FPS (1024 SPF)
Compression mode : Lossy
Stream size : 111 MiB (10%)
Language : Hindi
Default : Yes
Forced : No

Screen Shoots
Download Super Rakshak (2018) 720p Hindi Dubbed HDRip x264 AAC by Full4movies Torrent

Files:

  • Super Rakshak (2018) 720p Hindi Dubbed HDRip x264 AAC by Full4movies.mkv (1.1 GB)

There are currently no comments. Feel free to leave one :)

Code:

  • udp://tracker.coppersurfer.tk:6969/announce
  • udp://tracker.opentrackr.org:1337/announce
  • udp://9.rarbg.me:2710/announce
  • udp://tracker.torrent.eu.org:451/announce
  • udp://open.stealth.si:80/announce
  • udp://public.popcorn-tracker.org:6969/announce
  • udp://p4p.arenabg.ch:1337/announce
  • udp://tracker.zer0day.to:1337/announce
  • udp://tracker.pirateparty.gr:6969/announce
  • udp://tracker.leechers-paradise.org:6969/announce
  • udp://tracker.tiny-vps.com:6969/announce
  • udp://bt.firebit.co.uk:6969/announce
  • udp://inferno.demonoid.pw:3397/announce
  • udp://shadowshq.yi.org:6969/announce
  • udp://9.rarbg.to:2780/announce